Tuve un sueño mamá Soñe que había pasado mucho tiempo... Que estallaba una guerra Y que los hombres se mataban unos a otros. Tuve Un Sueño. Tuve un sueño mamáSoñe que había pasado mucho tiempo...Que estallaba una guerraY que los hombres se mataban unos a otros.Y yo era uno de ellosY que volvia a esta casa,Con las manos rojas de sangreY te encontraba hecha una viejita,Y este jardín ya no era jardín,Era una lapida de cemento,Y el pusicate ni los pajaritosY los arboles ya no estaban ahi. Send us your revision. - Google Play, Aplicativos Y yo era uno de ellos Y que volvia a esta casa, Con las manos rojas de sangre Y te encontraba hecha una viejita, Y este jardín ya no era jardín, Era una lapida de cemento, Y el pusicate ni los pajaritos Y los arboles ya no estaban ahi. Bebes, niños y adolescentes! Sueño - Mamá Ganza Isaac Peña. Do you know who is the songwriter? Congreso discography and songs: Music profile for Congreso, formed 1969. Tuve un sueño mamá Soñe que había pasado mucho tiempo... Que estallaba una guerra Y que los hombres se mataban unos a otros. Get the Congreso Setlist of the concert at Parque O'Higgins, Santiago, Chile on March 14, 2015 and other Congreso Setlists for free on setlist.fm! Tuve un sueño mamá soñe que había pasado mucho tiempo... Que estallaba una guerra y que los hombres se mataban unos a otros. - App Store, Aplicativos Did you see an error? View credits, reviews, tracks and shop for the 1992 Vinyl release of Y Que Respeten Los Derechos Del Niño / Tuve Un Sueño Mama on Discogs. Are you sure you want to exit without saving your changes? 48K likes. Tuve un sueño mamáSoñe que había pasado mucho tiempo...Que estallaba una guerraY que los hombres se mataban unos a otros.Y yo era uno de ellosY que volvia a esta casa,Con las manos rojas de sangreY te encontraba hecha una viejita,Y este jardín ya no era jardín,Era una lapida de cemento,Y el pusicate ni los pajaritosY los arboles ya no estaban ahi. TUVE UN SUENO MAMA Lyrics by Congreso Tuve un sueño mamá soñe que había pasado mucho tiempo... Que estallaba una guerra y que los hombres se mataban unos a otros. Loading... Unsubscribe from Isaac Peña? I want to receive notifications about featured artists and news. Mamá, mamá, un bello sueño tuve ayer Mamá, mamá, un gran soldado yo me vi Iba en formación con la mochila y mosquetón Y sobre el cielo tan azul de la mañana Estaba el sol como un amigo tras de mí. Utilizamos cookies para personalizar sua experiência. © 1996 - 2020, 580 mil músicas, O maior site de ensino de música do Brasil. Ao acessar o site, você concorda com a nossa Política de Privacidade. Albums include Congreso, Terra Incógnita, and Pájaros de arcilla. Pichanga - Profecias A Falta De Ecuaciones is a music studio album recording by CONGRESO (Prog Folk/Progressive Rock) released in 1992 on cd, lp / vinyl and/or cassette. 4:29. Venta Online, Entrega al domicilio (previa confirmación zona de cobertura) Aproveite o Cifra Club com benefícios exclusivos e sem anúncios, Aplicativos Y yo era uno de ellos y que volvia a esta casa, con las manos rojas de sangre y te encontraba hecha una viejita, y este jardín ya no era jardín, era una lapida de cemento, y el pusicate ni los pajaritos y los arboles ya no estaban ahi. Tuve un sueño mamá,Soñe que había pasado mucho tiempo... Tengo miedo mamá,Yo no quiero crecer,Yo no quiero dejar ser niño... Tengo miedo mamá, yo no quiero crecer,Yo no quiero dejar ser niño... Miedo,miedo mamá, mamáMiedo,miedo mamá, mamá... Feito com amor em Belo Horizonte 47 milhões de pessoas cadastradas Trabajamos indumentaria para chicos talle 0 al 18!!! Y yo era uno de ellos Y que volvia a esta casa, Con las manos rojas de sangre Y te encontraba hecha una viejita, Y este jardín ya no era jardín, Era una lapida de cemento, Y el pusicate ni los pajaritos Y los arboles ya no estaban ahi. TITLE "Tuve un sueño mamá" PERFORMER "Congreso" INDEX 01 00:00:00 FILE "02 La loca sin zapatos.wav" WAVE TRACK 02 AUDIO TITLE "La loca sin zapatos" PERFORMER "Congreso" INDEX 01 00:00:00 FILE "03 Canción de Nkwambe.wav" WAVE TRACK 03 AUDIO TITLE "Canción de Nkwambe" PERFORMER "Congreso" INDEX 01 00:00:00 FILE "04 Heroína de New York.wav" WAVE TRACK 04 … Mamá, mamá, un bello sueño tuve ayer Mamá, mamá, que sólo a ti … Tuve un sueño mamá,Soñe que había pasado mucho tiempo... Tengo miedo mamá,Yo no quiero crecer,Yo no quiero dejar ser niño... Tengo miedo mamá, yo no quiero crecer,Yo no quiero dejar ser niño... Miedo,miedo mamá, mamáMiedo,miedo mamá, mamá... Music begins with lyrics © 2003 - 2020, 2.9 millions of lyrics Made with love in Belo Horizonte - Brazil. Send us their name. Are you sure you want to delete this playlist? Congreso - Tuve Un Sueño Mamá (Letras y canción para escuchar) - Tuve un sueño mamá / Soñe que había pasado mucho tiempo / Que estallaba una guerra / Y que los hombres se mataban unos a otros / Y yo era uno de ellos / Y Genres: Progressive Folk, Avant-Prog. Tuve un sueño mamá Soñe que había pasado mucho tiempo... Que estallaba una guerra Y que los hombres se mataban unos a otros. Y yo era uno de ellos Y que volvia a esta casa, Con las manos rojas de sangre Y te encontraba hecha una viejita, Y este jardín ya no era jardín, Era una lapida de cemento, Y el pusicate ni los pajaritos Y los arboles ya no estaban ahi. - Microsoft Store. ... CONGRESO - TUVE UN SUEÑO MAMÁ - Duration: 4:29. borrachosinconsuelo Recommended for you.
2020 tuve un sueño mamá congreso